The Tuxedo (2002) 1080p AMZN WEB-DL H.264 Latino

Vizard

Well-known member
Miembro del Staff
Administrador
Registrado
26 Ene 2019
Mensajes
446
Reaction score
4.641
Puntos
256
Sexo
Hombre


SINOPSIS
Jimmy Tong (Jackie Chan), un taxista que ahora tiene el oficio de chófer, aprende pronto que a la hora de trabajar para el playboy millonario Clark Devlin (Jason Isaacs) sólo existe una regla: jamás se debe tocar el esmoquin, el traje de etiqueta que tanto aprecia Devlin. Pero cuando éste queda temporalmente fuera de combate tras sufrir un explosivo "accidente", Jimmy se pone el esmoquin y descubre que es un traje extraordinario. Jimmy se ve bruscamente sumergido en el peligroso mundo del espionaje en unión de una novata compañera (Jennifer Love Hewitt).


WEB-DL INFO
Insertar CODE, HTML o PHP:
Video.....: H.264 / 14.3 Mbps aprox / 1080p / 23.976 fps / 16:9 / High Profile 4.0
Audio...#1: Inglés / DTS / 5.1 / 48 kHz / 755 kbps
Audio...#1: Latino / Dolby Digital Plus / 5.1 / 48 kHz / 640 kbps
Subtítulos: Inglés SDH, Latino / Subrip (.srt)
Insertar CODE, HTML o PHP:
General
Unique ID                                : 84601291196757081627744429633695493020 (0x3FA59DB2805E972ECC53BABCA43DAB9C)
Complete name                            : The Tuxedo (2002) 1080p AMZN WEB-DL Latino - Vizard@latinouhd.mkv
Format                                   : Matroska
Format version                           : Version 4
File size                                : 10.8 GiB
Duration                                 : 1 h 38 min
Overall bit rate mode                    : Variable
Overall bit rate                         : 15.7 Mb/s
Movie name                               : The Tuxedo (2002)
Encoded date                             : UTC 2020-06-28 21:03:23
Writing application                      : mkvmerge v46.0.0 ('No Deeper Escape') 64-bit
Writing library                          : libebml v1.3.10 + libmatroska v1.5.2

Video
ID                                       : 1
Format                                   : AVC
Format/Info                              : Advanced Video Codec
Format profile                           : High@L4
Format settings                          : CABAC / 4 Ref Frames
Format settings, CABAC                   : Yes
Format settings, Reference frames        : 4 frames
Codec ID                                 : V_MPEG4/ISO/AVC
Duration                                 : 1 h 38 min
Bit rate mode                            : Variable
Bit rate                                 : 14.3 Mb/s
Maximum bit rate                         : 15.0 Mb/s
Width                                    : 1 920 pixels
Height                                   : 1 080 pixels
Display aspect ratio                     : 16:9
Frame rate mode                          : Constant
Frame rate                               : 23.976 (24000/1001) FPS
Color space                              : YUV
Chroma subsampling                       : 4:2:0
Bit depth                                : 8 bits
Scan type                                : Progressive
Bits/(Pixel*Frame)                       : 0.288
Stream size                              : 9.88 GiB (91%)
Title                                    : 14.3 Mbps 1080p (Amazon)
Writing library                          : x264 core 148 r2623 d5b2374
Encoding settings                        : cabac=1 / ref=4 / deblock=1:-1:-1 / analyse=0x3:0x133 / me=umh / subme=9 / psy=1 / psy_rd=1.00:0.15 / mixed_ref=1 / me_range=24 / chroma_me=1 / trellis=2 / 8x8dct=1 / cqm=0 / deadzone=21,11 / fast_pskip=1 / chroma_qp_offset=-3 / threads=34 / lookahead_threads=5 / sliced_threads=0 / nr=150 / decimate=1 / interlaced=0 / bluray_compat=0 / constrained_intra=0 / bframes=8 / b_pyramid=2 / b_adapt=2 / b_bias=0 / direct=3 / weightb=1 / open_gop=0 / weightp=2 / keyint=120 / keyint_min=61 / scenecut=0 / intra_refresh=0 / rc_lookahead=120 / rc=crf / mbtree=1 / crf=18.0 / qcomp=0.60 / qpmin=0 / qpmax=69 / qpstep=4 / vbv_maxrate=15000 / vbv_bufsize=31250 / crf_max=0.0 / nal_hrd=vbr / filler=0 / ip_ratio=1.40 / aq=3:1.00
Language                                 : English
Default                                  : Yes
Forced                                   : No
Color range                              : Limited
Color primaries                          : BT.709
Transfer characteristics                 : BT.709
Matrix coefficients                      : BT.709

Audio #1
ID                                       : 2
Format                                   : DTS
Format/Info                              : Digital Theater Systems
Codec ID                                 : A_DTS
Duration                                 : 1 h 38 min
Bit rate mode                            : Constant
Bit rate                                 : 755 kb/s
Channel(s)                               : 6 channels
Channel layout                           : C L R Ls Rs LFE
Sampling rate                            : 48.0 kHz
Frame rate                               : 93.750 FPS (512 SPF)
Bit depth                                : 16 bits
Compression mode                         : Lossy
Stream size                              : 533 MiB (5%)
Title                                    : Inglés DTS 5.1 @755kbps (DVD)
Language                                 : English
Default                                  : No
Forced                                   : No

Audio #2
ID                                       : 3
Format                                   : E-AC-3
Format/Info                              : Enhanced AC-3
Commercial name                          : Dolby Digital Plus
Codec ID                                 : A_EAC3
Duration                                 : 1 h 38 min
Bit rate mode                            : Constant
Bit rate                                 : 640 kb/s
Channel(s)                               : 6 channels
Channel layout                           : L R C LFE Ls Rs
Sampling rate                            : 48.0 kHz
Frame rate                               : 31.250 FPS (1536 SPF)
Compression mode                         : Lossy
Stream size                              : 452 MiB (4%)
Title                                    : Español Latino E-AC3 5.1 @640kps (Netflix)
Language                                 : Spanish
Service kind                             : Complete Main
Default                                  : Yes
Forced                                   : No

Text #1
ID                                       : 4
Format                                   : UTF-8
Codec ID                                 : S_TEXT/UTF8
Codec ID/Info                            : UTF-8 Plain Text
Duration                                 : 1 h 34 min
Bit rate                                 : 65 b/s
Count of elements                        : 1257
Stream size                              : 45.6 KiB (0%)
Title                                    : Inglés SDH (Amazon)
Language                                 : English
Default                                  : No
Forced                                   : No

Text #2
ID                                       : 5
Format                                   : UTF-8
Codec ID                                 : S_TEXT/UTF8
Codec ID/Info                            : UTF-8 Plain Text
Duration                                 : 1 h 33 min
Bit rate                                 : 55 b/s
Count of elements                        : 1045
Stream size                              : 37.9 KiB (0%)
Title                                    : Español Latino (Netflix)
Language                                 : Spanish
Default                                  : No
Forced                                   : No

Menu
00:00:00.000                             : en:Aqua La Vista (Main Titles)
00:03:36.800                             : en:Art Gallery/Bike Messenger
00:08:12.158                             : en:House Rules
00:10:51.650                             : en:Meet Clark Devlin
00:13:17.087                             : en:CSA Headquarters/Bug Store
00:19:14.778                             : en:Skateboard Bomb
00:24:43.356                             : en:Banning International
00:27:08.584                             : en:Tuxedo Demo
00:31:23.005                             : en:Nice Rack
00:35:34.506                             : en:Rope Fighting
00:41:18.724                             : en:A Little Over Amped
00:44:48.517                             : en:Meet James Brown
00:49:04.439                             : en:The Last Emperor of Soul
00:57:09.202                             : en:Cheryl's Hospitality Suite
01:05:19.329                             : en:Walk on Water
01:12:30.384                             : en:"Clark Devlin" Is Back
01:17:33.353                             : en:The Tuxedo vs. The Suit
01:22:37.490                             : en:Awaiting the Queen
01:28:35.181                             : en:Operation Art Gallery
01:33:12.249                             : en:Outtakes (End Credits)
01:38:41.246                             : en:Aqua La Vista (Main Titles)
Insertar CODE, HTML o PHP:
NOTAS:
Video, sub inglés y chapters tomados de un web-dl de amazon publicado en 2016
The.Tuxedo.2002.1080p.WEBRip.DD5.1.x264-spartanec163.mkv

Audio inglés tomado y sincronizado del DVD9 NTSC R1.
Audio latino y sub latino tomados y sincronizados de Netflix latam.
CAPTURAS







DESCARGA



:MEGA: :GoogleDrive:
El contenido de este bloque oculto solo puede ser visto por miembros de (Grupos de Usuarios: Miembro VIP).

ENLACES EXTERNOS


CONTRASEÑA
www.latinouhd.com
 

brusvaner

Well-known member
Miembro Registrado
Registrado
16 Ago 2019
Mensajes
139
Reaction score
12
Puntos
131
VIPPPPPPPPPPPPPPPPPPPPP ??????????????? PORQUE ??????
 
Arriba