Sr. Ávila (2013) S04 1080p AMZN WEB-DL H.264 Latino

Vizard

Well-known member
Miembro del Staff
Administrador
Uploader
Registrado
26 Ene 2019
Mensajes
606
Reaction score
10.542
Género
Hombre


SINOPSIS
Sr. Ávila narra la historia de un hombre de clase media, vendedor de seguros de vida, esposo y padre, que oculta una doble vida como asesino a sueldo dentro de una organización criminal. La vida de Ávila no es, en apariencia, muy distinta a la de cualquier otro ciudadano de una gran ciudad; sin embargo, levantar esta fachada de normalidad no ha sido tarea fácil, y más difícil aún será mantenerla. Ávila escalará posiciones dentro de la organización y se convertirá en el Sr. Del negocio. Con el nuevo cargo vendrán problemas y responsabilidades y la entramada farsa se irá desmoronando; el pasado regresará para cobrar cuentas pendientes y su vida, la de su esposa María y su hijo Emiliano se transformarán en una pesadilla de la cual será difícil escapar.


WEB-DL INFO
Insertar CODE, HTML o PHP:
Fuente: https://www.amazon.com/gp/video/detail/B07FYS5PL1/
Sr.Ávila.S04.REPACK.1080p.WEB-DL.DD+5.1.H.264-SbR [32.4GB]
Video.....: H.264 / 8.3-10 Mbps aprox / 1080p / 23.976 fps / 16:9 / High Profile 4.0
Audio...#1: Latino / Dolby Digital Plus / 5.1 / 48 kHz / 640 kbps
Subtítulos: Inglés SDH, Latino, Ruso / Subrip (.srt)

Insertar CODE, HTML o PHP:
General
Unique ID                                : 30502486499436311165642577170685602685 (0x16F290B1C8722F49426291548351AB7D)
Complete name                            : Sr.Ávila.S04E01.Above.and.Below.the.Don.1080p.WEB-DL.DD+5.1.H.264-SbR.mkv
Format                                   : Matroska
Format version                           : Version 4
File size                                : 4.26 GiB
Duration                                 : 1 h 5 min
Overall bit rate                         : 9 265 kb/s
Encoded date                             : UTC 2019-05-03 08:03:26
Writing application                      : mkvmerge v33.1.0 ('Primrose') 64-bit
Writing library                          : libebml v1.3.7 + libmatroska v1.5.0

Video
ID                                       : 1
Format                                   : AVC
Format/Info                              : Advanced Video Codec
Format profile                           : High@L4
Format settings                          : CABAC / 4 Ref Frames
Format settings, CABAC                   : Yes
Format settings, Reference frames        : 4 frames
Codec ID                                 : V_MPEG4/ISO/AVC
Duration                                 : 1 h 5 min
Bit rate mode                            : Constant
Bit rate                                 : 8 622 kb/s
Nominal bit rate                         : 10 000 kb/s
Width                                    : 1 920 pixels
Height                                   : 1 080 pixels
Display aspect ratio                     : 16:9
Frame rate mode                          : Constant
Frame rate                               : 23.976 (24000/1001) FPS
Color space                              : YUV
Chroma subsampling                       : 4:2:0
Bit depth                                : 8 bits
Scan type                                : Progressive
Bits/(Pixel*Frame)                       : 0.173
Stream size                              : 3.96 GiB (93%)
Language                                 : Spanish
Default                                  : Yes
Forced                                   : No
Color range                              : Limited
Color primaries                          : BT.709
Transfer characteristics                 : BT.709
Matrix coefficients                      : BT.709

Audio
ID                                       : 2
Format                                   : E-AC-3
Format/Info                              : Enhanced AC-3
Commercial name                          : Dolby Digital Plus
Codec ID                                 : A_EAC3
Duration                                 : 1 h 5 min
Bit rate mode                            : Constant
Bit rate                                 : 640 kb/s
Channel(s)                               : 6 channels
Channel layout                           : L R C LFE Ls Rs
Sampling rate                            : 48.0 kHz
Frame rate                               : 31.250 FPS (1536 SPF)
Compression mode                         : Lossy
Stream size                              : 301 MiB (7%)
Language                                 : Spanish
Service kind                             : Complete Main
Default                                  : Yes
Forced                                   : No

Text #1
ID                                       : 3
Format                                   : UTF-8
Codec ID                                 : S_TEXT/UTF8
Codec ID/Info                            : UTF-8 Plain Text
Duration                                 : 1 h 1 min
Bit rate                                 : 49 b/s
Count of elements                        : 530
Stream size                              : 22.6 KiB (0%)
Language                                 : Russian
Default                                  : No
Forced                                   : No

Text #2
ID                                       : 4
Format                                   : ASS
Codec ID                                 : S_TEXT/ASS
Codec ID/Info                            : Advanced Sub Station Alpha
Duration                                 : 1 h 2 min
Bit rate                                 : 56 b/s
Count of elements                        : 480
Compression mode                         : Lossless
Stream size                              : 26.0 KiB (0%)
Language                                 : English
Default                                  : No
Forced                                   : No

Text #3
ID                                       : 5
Format                                   : UTF-8
Codec ID                                 : S_TEXT/UTF8
Codec ID/Info                            : UTF-8 Plain Text
Duration                                 : 1 h 2 min
Bit rate                                 : 34 b/s
Count of elements                        : 480
Stream size                              : 15.8 KiB (0%)
Language                                 : English
Default                                  : No
Forced                                   : No

Text #4
ID                                       : 6
Format                                   : UTF-8
Codec ID                                 : S_TEXT/UTF8
Codec ID/Info                            : UTF-8 Plain Text
Duration                                 : 1 h 3 min
Bit rate                                 : 45 b/s
Count of elements                        : 729
Stream size                              : 21.3 KiB (0%)
Title                                    : SDH
Language                                 : Spanish
Default                                  : No
Forced                                   : No

CAPTURAS






DESCARGA

:MEGA: :GoogleDrive:
El contenido de este bloque oculto solo puede ser visto por miembros de (Grupos de Usuarios: Miembro VIP).

:MEGA: :GoogleDrive:
Para ver este contenido oculto, debes reaccionar con : Like Like, Love Love

ENLACES EXTERNOS


CONTRASEÑA
www.latinouhd.com
 

guaima

New member
Registrado
15 May 2020
Mensajes
1
Reaction score
0
Género
Mujer
Me gusta esta pagina, gracias por el aporte
 

frawix

New member
Registrado
9 Oct 2020
Mensajes
4
Reaction score
0
Género
Hombre
Solo los enlances de google drive funcionan, los otros solo mandan a interminable spam :(
 

frawix

New member
Registrado
9 Oct 2020
Mensajes
4
Reaction score
0
Género
Hombre
Una disculpa!
Funcionan muy bien los links y muy buena la calidad.
Solo hay que tener un poco de paciencia, gracias!
 

pollo1964

New member
Registrado
12 Nov 2020
Mensajes
1
Reaction score
0
Género
Hombre
no lo gro bajarla me pide autorizacion en goolgel drive
 

cospillo

New member
Registrado
24 Dic 2020
Mensajes
1
Reaction score
0


SINOPSIS
Sr. Ávila narra la historia de un hombre de clase media, vendedor de seguros de vida, esposo y padre, que oculta una doble vida como asesino a sueldo dentro de una organización criminal. La vida de Ávila no es, en apariencia, muy distinta a la de cualquier otro ciudadano de una gran ciudad; sin embargo, levantar esta fachada de normalidad no ha sido tarea fácil, y más difícil aún será mantenerla. Ávila escalará posiciones dentro de la organización y se convertirá en el Sr. Del negocio. Con el nuevo cargo vendrán problemas y responsabilidades y la entramada farsa se irá desmoronando; el pasado regresará para cobrar cuentas pendientes y su vida, la de su esposa María y su hijo Emiliano se transformarán en una pesadilla de la cual será difícil escapar.


WEB-DL INFO
Insertar CODE, HTML o PHP:
Fuente: https://www.amazon.com/gp/video/detail/B07FYS5PL1/
Sr.Ávila.S04.REPACK.1080p.WEB-DL.DD+5.1.H.264-SbR [32.4GB]
Video.....: H.264 / 8.3-10 Mbps aprox / 1080p / 23.976 fps / 16:9 / High Profile 4.0
Audio...#1: Latino / Dolby Digital Plus / 5.1 / 48 kHz / 640 kbps
Subtítulos: Inglés SDH, Latino, Ruso / Subrip (.srt)

Insertar CODE, HTML o PHP:
General
Unique ID                                : 30502486499436311165642577170685602685 (0x16F290B1C8722F49426291548351AB7D)
Complete name                            : Sr.Ávila.S04E01.Above.and.Below.the.Don.1080p.WEB-DL.DD+5.1.H.264-SbR.mkv
Format                                   : Matroska
Format version                           : Version 4
File size                                : 4.26 GiB
Duration                                 : 1 h 5 min
Overall bit rate                         : 9 265 kb/s
Encoded date                             : UTC 2019-05-03 08:03:26
Writing application                      : mkvmerge v33.1.0 ('Primrose') 64-bit
Writing library                          : libebml v1.3.7 + libmatroska v1.5.0

Video
ID                                       : 1
Format                                   : AVC
Format/Info                              : Advanced Video Codec
Format profile                           : High@L4
Format settings                          : CABAC / 4 Ref Frames
Format settings, CABAC                   : Yes
Format settings, Reference frames        : 4 frames
Codec ID                                 : V_MPEG4/ISO/AVC
Duration                                 : 1 h 5 min
Bit rate mode                            : Constant
Bit rate                                 : 8 622 kb/s
Nominal bit rate                         : 10 000 kb/s
Width                                    : 1 920 pixels
Height                                   : 1 080 pixels
Display aspect ratio                     : 16:9
Frame rate mode                          : Constant
Frame rate                               : 23.976 (24000/1001) FPS
Color space                              : YUV
Chroma subsampling                       : 4:2:0
Bit depth                                : 8 bits
Scan type                                : Progressive
Bits/(Pixel*Frame)                       : 0.173
Stream size                              : 3.96 GiB (93%)
Language                                 : Spanish
Default                                  : Yes
Forced                                   : No
Color range                              : Limited
Color primaries                          : BT.709
Transfer characteristics                 : BT.709
Matrix coefficients                      : BT.709

Audio
ID                                       : 2
Format                                   : E-AC-3
Format/Info                              : Enhanced AC-3
Commercial name                          : Dolby Digital Plus
Codec ID                                 : A_EAC3
Duration                                 : 1 h 5 min
Bit rate mode                            : Constant
Bit rate                                 : 640 kb/s
Channel(s)                               : 6 channels
Channel layout                           : L R C LFE Ls Rs
Sampling rate                            : 48.0 kHz
Frame rate                               : 31.250 FPS (1536 SPF)
Compression mode                         : Lossy
Stream size                              : 301 MiB (7%)
Language                                 : Spanish
Service kind                             : Complete Main
Default                                  : Yes
Forced                                   : No

Text #1
ID                                       : 3
Format                                   : UTF-8
Codec ID                                 : S_TEXT/UTF8
Codec ID/Info                            : UTF-8 Plain Text
Duration                                 : 1 h 1 min
Bit rate                                 : 49 b/s
Count of elements                        : 530
Stream size                              : 22.6 KiB (0%)
Language                                 : Russian
Default                                  : No
Forced                                   : No

Text #2
ID                                       : 4
Format                                   : ASS
Codec ID                                 : S_TEXT/ASS
Codec ID/Info                            : Advanced Sub Station Alpha
Duration                                 : 1 h 2 min
Bit rate                                 : 56 b/s
Count of elements                        : 480
Compression mode                         : Lossless
Stream size                              : 26.0 KiB (0%)
Language                                 : English
Default                                  : No
Forced                                   : No

Text #3
ID                                       : 5
Format                                   : UTF-8
Codec ID                                 : S_TEXT/UTF8
Codec ID/Info                            : UTF-8 Plain Text
Duration                                 : 1 h 2 min
Bit rate                                 : 34 b/s
Count of elements                        : 480
Stream size                              : 15.8 KiB (0%)
Language                                 : English
Default                                  : No
Forced                                   : No

Text #4
ID                                       : 6
Format                                   : UTF-8
Codec ID                                 : S_TEXT/UTF8
Codec ID/Info                            : UTF-8 Plain Text
Duration                                 : 1 h 3 min
Bit rate                                 : 45 b/s
Count of elements                        : 729
Stream size                              : 21.3 KiB (0%)
Title                                    : SDH
Language                                 : Spanish
Default                                  : No
Forced                                   : No

CAPTURAS






DESCARGA

:MEGA: :GoogleDrive:
[Hidden content]

:MEGA: :GoogleDrive:
[Hidden content]

ENLACES EXTERNOS


CONTRASEÑA
www.latinouhd.com
Vizard
 

erwinniwre

New member
Registrado
25 Ene 2021
Mensajes
2
Reaction score
0
Género
Hombre


SINOPSIS
Sr. Ávila narra la historia de un hombre de clase media, vendedor de seguros de vida, esposo y padre, que oculta una doble vida como asesino a sueldo dentro de una organización criminal. La vida de Ávila no es, en apariencia, muy distinta a la de cualquier otro ciudadano de una gran ciudad; sin embargo, levantar esta fachada de normalidad no ha sido tarea fácil, y más difícil aún será mantenerla. Ávila escalará posiciones dentro de la organización y se convertirá en el Sr. Del negocio. Con el nuevo cargo vendrán problemas y responsabilidades y la entramada farsa se irá desmoronando; el pasado regresará para cobrar cuentas pendientes y su vida, la de su esposa María y su hijo Emiliano se transformarán en una pesadilla de la cual será difícil escapar.


WEB-DL INFO
Insertar CODE, HTML o PHP:
Fuente: https://www.amazon.com/gp/video/detail/B07FYS5PL1/
Sr.Ávila.S04.REPACK.1080p.WEB-DL.DD+5.1.H.264-SbR [32.4GB]
Video.....: H.264 / 8.3-10 Mbps aprox / 1080p / 23.976 fps / 16:9 / High Profile 4.0
Audio...#1: Latino / Dolby Digital Plus / 5.1 / 48 kHz / 640 kbps
Subtítulos: Inglés SDH, Latino, Ruso / Subrip (.srt)

Insertar CODE, HTML o PHP:
General
Unique ID                                : 30502486499436311165642577170685602685 (0x16F290B1C8722F49426291548351AB7D)
Complete name                            : Sr.Ávila.S04E01.Above.and.Below.the.Don.1080p.WEB-DL.DD+5.1.H.264-SbR.mkv
Format                                   : Matroska
Format version                           : Version 4
File size                                : 4.26 GiB
Duration                                 : 1 h 5 min
Overall bit rate                         : 9 265 kb/s
Encoded date                             : UTC 2019-05-03 08:03:26
Writing application                      : mkvmerge v33.1.0 ('Primrose') 64-bit
Writing library                          : libebml v1.3.7 + libmatroska v1.5.0

Video
ID                                       : 1
Format                                   : AVC
Format/Info                              : Advanced Video Codec
Format profile                           : High@L4
Format settings                          : CABAC / 4 Ref Frames
Format settings, CABAC                   : Yes
Format settings, Reference frames        : 4 frames
Codec ID                                 : V_MPEG4/ISO/AVC
Duration                                 : 1 h 5 min
Bit rate mode                            : Constant
Bit rate                                 : 8 622 kb/s
Nominal bit rate                         : 10 000 kb/s
Width                                    : 1 920 pixels
Height                                   : 1 080 pixels
Display aspect ratio                     : 16:9
Frame rate mode                          : Constant
Frame rate                               : 23.976 (24000/1001) FPS
Color space                              : YUV
Chroma subsampling                       : 4:2:0
Bit depth                                : 8 bits
Scan type                                : Progressive
Bits/(Pixel*Frame)                       : 0.173
Stream size                              : 3.96 GiB (93%)
Language                                 : Spanish
Default                                  : Yes
Forced                                   : No
Color range                              : Limited
Color primaries                          : BT.709
Transfer characteristics                 : BT.709
Matrix coefficients                      : BT.709

Audio
ID                                       : 2
Format                                   : E-AC-3
Format/Info                              : Enhanced AC-3
Commercial name                          : Dolby Digital Plus
Codec ID                                 : A_EAC3
Duration                                 : 1 h 5 min
Bit rate mode                            : Constant
Bit rate                                 : 640 kb/s
Channel(s)                               : 6 channels
Channel layout                           : L R C LFE Ls Rs
Sampling rate                            : 48.0 kHz
Frame rate                               : 31.250 FPS (1536 SPF)
Compression mode                         : Lossy
Stream size                              : 301 MiB (7%)
Language                                 : Spanish
Service kind                             : Complete Main
Default                                  : Yes
Forced                                   : No

Text #1
ID                                       : 3
Format                                   : UTF-8
Codec ID                                 : S_TEXT/UTF8
Codec ID/Info                            : UTF-8 Plain Text
Duration                                 : 1 h 1 min
Bit rate                                 : 49 b/s
Count of elements                        : 530
Stream size                              : 22.6 KiB (0%)
Language                                 : Russian
Default                                  : No
Forced                                   : No

Text #2
ID                                       : 4
Format                                   : ASS
Codec ID                                 : S_TEXT/ASS
Codec ID/Info                            : Advanced Sub Station Alpha
Duration                                 : 1 h 2 min
Bit rate                                 : 56 b/s
Count of elements                        : 480
Compression mode                         : Lossless
Stream size                              : 26.0 KiB (0%)
Language                                 : English
Default                                  : No
Forced                                   : No

Text #3
ID                                       : 5
Format                                   : UTF-8
Codec ID                                 : S_TEXT/UTF8
Codec ID/Info                            : UTF-8 Plain Text
Duration                                 : 1 h 2 min
Bit rate                                 : 34 b/s
Count of elements                        : 480
Stream size                              : 15.8 KiB (0%)
Language                                 : English
Default                                  : No
Forced                                   : No

Text #4
ID                                       : 6
Format                                   : UTF-8
Codec ID                                 : S_TEXT/UTF8
Codec ID/Info                            : UTF-8 Plain Text
Duration                                 : 1 h 3 min
Bit rate                                 : 45 b/s
Count of elements                        : 729
Stream size                              : 21.3 KiB (0%)
Title                                    : SDH
Language                                 : Spanish
Default                                  : No
Forced                                   : No

CAPTURAS






DESCARGA

:MEGA: :GoogleDrive:
[Hidden content]

:MEGA: :GoogleDrive:
[Hidden content]

ENLACES EXTERNOS


CONTRASEÑA
www.latinouhd.com
VizardHello,
Sr. Avila season 4 links are dead, can you reupload it please?
 

grejstok

New member
Registrado
5 Mar 2021
Mensajes
2
Reaction score
1
Género
Hombre
Any chance of getting a new mega link since uiz.app is dead and can't redirect to the mega folder? Thanks.
 
Arriba