• Hola Invitado. Debido a la poca actividad en la página este mes, se ha extendido 7~14 días a las membresias vip que finalizaron la primera y segunda semana de octubre.

Sr. Ávila (2013) S03 1080p AMZN WEB-DL H.264 Latino

Vizard

Well-known member
Miembro del Staff
Administrador
Registrado
26 Ene 2019
Mensajes
476
Reaction score
6.057
Puntos
256
Género
Hombre


SINOPSIS
Sr. Ávila narra la historia de un hombre de clase media, vendedor de seguros de vida, esposo y padre, que oculta una doble vida como asesino a sueldo dentro de una organización criminal. La vida de Ávila no es, en apariencia, muy distinta a la de cualquier otro ciudadano de una gran ciudad; sin embargo, levantar esta fachada de normalidad no ha sido tarea fácil, y más difícil aún será mantenerla. Ávila escalará posiciones dentro de la organización y se convertirá en el Sr. Del negocio. Con el nuevo cargo vendrán problemas y responsabilidades y la entramada farsa se irá desmoronando; el pasado regresará para cobrar cuentas pendientes y su vida, la de su esposa María y su hijo Emiliano se transformarán en una pesadilla de la cual será difícil escapar.


WEB-DL INFO
Insertar CODE, HTML o PHP:
Fuente: https://www.amazon.com/gp/video/detail/B01MSJIZ5N
Sr.Ávila.S03.1080p.WEB-DL.DD+2.0.H.264-SbR [20.6GB]
Video.....: x264 / 5900 kbps aprox / 1080p / 23.976 fps / 16:9 / High Profile 4.0
Audio...#1: Latino / Dolby Digital Plus / 2.0 / 48 kHz / 224 kbps
Subtítulos: Inglés SDH, Latino, Ruso / Subrip (.srt)
Insertar CODE, HTML o PHP:
General
Unique ID                                : 131817741076647448146549419890377768759 (0x632B2C68CC71A2489D80D101CC883F37)
Complete name                            : Sr.Avila.S03E01.A.Clown.Roars.into.the.Night.1080p.WEB-DL.DD+2.0.H.264-SbR.mkv
Format                                   : Matroska
Format version                           : Version 4
File size                                : 2.46 GiB
Duration                                 : 57 min 19 s
Overall bit rate                         : 6 145 kb/s
Encoded date                             : UTC 2019-05-01 05:56:35
Writing application                      : mkvmerge v33.1.0 ('Primrose') 64-bit
Writing library                          : libebml v1.3.7 + libmatroska v1.5.0

Video
ID                                       : 1
Format                                   : AVC
Format/Info                              : Advanced Video Codec
Format profile                           : High@L4
Format settings                          : CABAC / 4 Ref Frames
Format settings, CABAC                   : Yes
Format settings, RefFrames               : 4 frames
Codec ID                                 : V_MPEG4/ISO/AVC
Duration                                 : 57 min 19 s
Bit rate mode                            : Constant
Bit rate                                 : 5 918 kb/s
Nominal bit rate                         : 10 000 kb/s
Width                                    : 1 920 pixels
Height                                   : 1 080 pixels
Display aspect ratio                     : 16:9
Frame rate mode                          : Constant
Frame rate                               : 23.976 (24000/1001) FPS
Color space                              : YUV
Chroma subsampling                       : 4:2:0
Bit depth                                : 8 bits
Scan type                                : Progressive
Bits/(Pixel*Frame)                       : 0.119
Stream size                              : 2.37 GiB (96%)
Language                                 : Spanish
Default                                  : Yes
Forced                                   : No
Color range                              : Limited
Color primaries                          : BT.709
Transfer characteristics                 : BT.709
Matrix coefficients                      : BT.709

Audio
ID                                       : 2
Format                                   : E-AC-3
Format/Info                              : Enhanced AC-3
Commercial name                          : Dolby Digital Plus
Codec ID                                 : A_EAC3
Duration                                 : 57 min 19 s
Bit rate mode                            : Constant
Bit rate                                 : 224 kb/s
Channel(s)                               : 2 channels
Channel layout                           : L R
Sampling rate                            : 48.0 kHz
Frame rate                               : 31.250 FPS (1536 SPF)
Compression mode                         : Lossy
Stream size                              : 91.8 MiB (4%)
Language                                 : Spanish
Service kind                             : Complete Main
Default                                  : Yes
Forced                                   : No

Text #1
ID                                       : 3
Format                                   : UTF-8
Codec ID                                 : S_TEXT/UTF8
Codec ID/Info                            : UTF-8 Plain Text
Duration                                 : 52 min 6 s
Bit rate                                 : 71 b/s
Count of elements                        : 555
Stream size                              : 27.5 KiB (0%)
Language                                 : Russian
Default                                  : No
Forced                                   : No

Text #2
ID                                       : 4
Format                                   : ASS
Codec ID                                 : S_TEXT/ASS
Codec ID/Info                            : Advanced Sub Station Alpha
Duration                                 : 51 min 59 s
Bit rate                                 : 73 b/s
Count of elements                        : 531
Compression mode                         : Lossless
Stream size                              : 28.1 KiB (0%)
Language                                 : English
Default                                  : No
Forced                                   : No

Text #3
ID                                       : 5
Format                                   : UTF-8
Codec ID                                 : S_TEXT/UTF8
Codec ID/Info                            : UTF-8 Plain Text
Duration                                 : 51 min 59 s
Bit rate                                 : 43 b/s
Count of elements                        : 531
Stream size                              : 16.6 KiB (0%)
Language                                 : English
Default                                  : No
Forced                                   : No

Text #4
ID                                       : 6
Format                                   : UTF-8
Codec ID                                 : S_TEXT/UTF8
Codec ID/Info                            : UTF-8 Plain Text
Duration                                 : 52 min 9 s
Bit rate                                 : 54 b/s
Count of elements                        : 624
Stream size                              : 20.8 KiB (0%)
Title                                    : SDH
Language                                 : Spanish
Default                                  : No
Forced                                   : No
CAPTURAS






DESCARGA
El contenido de este bloque oculto solo puede ser visto por miembros de (Grupos de Usuarios: Miembro VIP).

Para ver este contenido oculto, debes reaccionar con : Like Like, Love Love

ENLACES EXTERNOS


CONTRASEÑA
www.latinouhd.com
 

MontChrist

New member
Miembro Registrado
Registrado
15 Abr 2020
Mensajes
5
Reaction score
0
Puntos
1
Género
Hombre
Muchísimas gracias por el aporte. Se ven geniales!

Llegarán a subir las otras temporadas en la misma calidad?
 

Vizard

Well-known member
Miembro del Staff
Administrador
Registrado
26 Ene 2019
Mensajes
476
Reaction score
6.057
Puntos
256
Género
Hombre
Sí, las subiré entre 1 a 2 semanas ya que no es mi prioridad ahora.
 

m0yP

New member
Miembro Registrado
Registrado
15 Abr 2020
Mensajes
1
Reaction score
1
Puntos
1
Género
Hombre
Muchas gracias! Excelente calidad. Ojalá pudieras subir las demás temporadas.
 

leonblack92

New member
Miembro Registrado
Registrado
4 May 2020
Mensajes
1
Reaction score
0
Puntos
1
Género
Hombre
gracias por el aporte hace rato la esta buscando.
 

Darkou

New member
Miembro Registrado
Registrado
6 May 2020
Mensajes
1
Reaction score
0
Puntos
1
Género
Hombre
Muchas gracias. espero que sirvan los enlaces
 

Saulowsky

New member
Miembro Registrado
Registrado
16 Jun 2020
Mensajes
1
Reaction score
1
Puntos
1
Género
Hombre
buenos dias, soy un nuevo usuario, uno de España... He conociso recientemente el trabajo del sr Dalton y he flipado! Tengo muchas ganas de ver esta serie, que no salio en mi pais. Muchas gracias!!
 

frawix

New member
Miembro Registrado
Registrado
9 Oct 2020
Mensajes
4
Reaction score
0
Puntos
1
Género
Hombre
Ya no sirven los enlaces, envian a puro spam. S04 solo los enlaces de google drive sirven
 

frawix

New member
Miembro Registrado
Registrado
9 Oct 2020
Mensajes
4
Reaction score
0
Puntos
1
Género
Hombre
Una disculpa!
Funcionan muy bien los links y muy buena la calidad.
Solo hay que tener un poco de paciencia, gracias!
 
Arriba