Sr. Ávila (2013) S02 1080p AMZN WEB-DL H.264 Latino

Vizard

Well-known member
Miembro del Staff
Administrador
Registrado
26 Ene 2019
Mensajes
413
Reaction score
3.932
Puntos
256
Sexo
Hombre


SINOPSIS
Sr. Ávila narra la historia de un hombre de clase media, vendedor de seguros de vida, esposo y padre, que oculta una doble vida como asesino a sueldo dentro de una organización criminal. La vida de Ávila no es, en apariencia, muy distinta a la de cualquier otro ciudadano de una gran ciudad; sin embargo, levantar esta fachada de normalidad no ha sido tarea fácil, y más difícil aún será mantenerla. Ávila escalará posiciones dentro de la organización y se convertirá en el Sr. Del negocio. Con el nuevo cargo vendrán problemas y responsabilidades y la entramada farsa se irá desmoronando; el pasado regresará para cobrar cuentas pendientes y su vida, la de su esposa María y su hijo Emiliano se transformarán en una pesadilla de la cual será difícil escapar.


WEB-DL INFO
Insertar CODE, HTML o PHP:
Fuente: https://www.amazon.com/gp/video/detail/B01IUT2BHM/
Sr.Ávila.S02.REPACK.1080p.WEB-DL.DD+5.1.H.264-SbR [31.3GB]
Video.....: H.264 / 6-8 Mbps aprox / 1080p / 23.976 fps / 16:9 / High Profile 4.0
Audio...#1: Latino / Dolby Digital Plus / 5.1 / 48 kHz / 640 kbps
Subtítulos: Inglés SDH, Latino, Ruso / Subrip (.srt)
Insertar CODE, HTML o PHP:
General
Unique ID                                : 40081600298749292522419739458741572173 (0x1E276F77E8F90E8D2BE116ABB5E9924D)
Complete name                            : Sr.Ávila.S02E01.Christ's.Hitman.1080p.WEB-DL.DD+5.1.H.264-SbR.mkv
Format                                   : Matroska
Format version                           : Version 4
File size                                : 3.45 GiB
Duration                                 : 58 min 54 s
Overall bit rate mode                    : Variable
Overall bit rate                         : 8 382 kb/s
Encoded date                             : UTC 2019-04-21 19:34:24
Writing application                      : mkvmerge v33.1.0 ('Primrose') 64-bit
Writing library                          : libebml v1.3.7 + libmatroska v1.5.0

Video
ID                                       : 1
Format                                   : AVC
Format/Info                              : Advanced Video Codec
Format profile                           : High@L4
Format settings                          : CABAC / 4 Ref Frames
Format settings, CABAC                   : Yes
Format settings, Reference frames        : 4 frames
Codec ID                                 : V_MPEG4/ISO/AVC
Duration                                 : 58 min 54 s
Bit rate mode                            : Variable
Bit rate                                 : 7 740 kb/s
Maximum bit rate                         : 15.0 Mb/s
Width                                    : 1 920 pixels
Height                                   : 1 080 pixels
Display aspect ratio                     : 16:9
Frame rate mode                          : Constant
Frame rate                               : 29.970 (30000/1001) FPS
Color space                              : YUV
Chroma subsampling                       : 4:2:0
Bit depth                                : 8 bits
Scan type                                : Progressive
Bits/(Pixel*Frame)                       : 0.125
Stream size                              : 3.18 GiB (92%)
Language                                 : Spanish
Default                                  : Yes
Forced                                   : No
Color range                              : Limited
Color primaries                          : BT.709
Transfer characteristics                 : BT.709
Matrix coefficients                      : BT.709

Audio
ID                                       : 2
Format                                   : E-AC-3
Format/Info                              : Enhanced AC-3
Commercial name                          : Dolby Digital Plus
Codec ID                                 : A_EAC3
Duration                                 : 58 min 53 s
Bit rate mode                            : Constant
Bit rate                                 : 640 kb/s
Channel(s)                               : 6 channels
Channel layout                           : L R C LFE Ls Rs
Sampling rate                            : 48.0 kHz
Frame rate                               : 31.250 FPS (1536 SPF)
Compression mode                         : Lossy
Stream size                              : 270 MiB (8%)
Language                                 : Spanish
Service kind                             : Complete Main
Default                                  : Yes
Forced                                   : No

Text #1
ID                                       : 3
Format                                   : UTF-8
Codec ID                                 : S_TEXT/UTF8
Codec ID/Info                            : UTF-8 Plain Text
Duration                                 : 57 min 27 s
Bit rate                                 : 60 b/s
Count of elements                        : 477
Stream size                              : 25.3 KiB (0%)
Language                                 : Russian
Default                                  : No
Forced                                   : No

Text #2
ID                                       : 4
Format                                   : ASS
Codec ID                                 : S_TEXT/ASS
Codec ID/Info                            : Advanced Sub Station Alpha
Duration                                 : 57 min 15 s
Bit rate                                 : 61 b/s
Count of elements                        : 489
Compression mode                         : Lossless
Stream size                              : 25.9 KiB (0%)
Language                                 : English
Default                                  : No
Forced                                   : No

Text #3
ID                                       : 5
Format                                   : UTF-8
Codec ID                                 : S_TEXT/UTF8
Codec ID/Info                            : UTF-8 Plain Text
Duration                                 : 57 min 15 s
Bit rate                                 : 36 b/s
Count of elements                        : 489
Stream size                              : 15.4 KiB (0%)
Language                                 : English
Default                                  : No
Forced                                   : No

Text #4
ID                                       : 6
Format                                   : UTF-8
Codec ID                                 : S_TEXT/UTF8
Codec ID/Info                            : UTF-8 Plain Text
Duration                                 : 57 min 18 s
Bit rate                                 : 46 b/s
Count of elements                        : 610
Stream size                              : 19.5 KiB (0%)
Title                                    : SDH
Language                                 : Spanish
Default                                  : No
Forced                                   : No
CAPTURAS






DESCARGA

:MEGA: :GoogleDrive:
El contenido de este bloque oculto solo puede ser visto por miembros de (Grupos de Usuarios: Miembro VIP).

:MEGA: :GoogleDrive:
Para ver este contenido oculto, debes reaccionar con : Like Like, Love Love

ENLACES EXTERNOS


CONTRASEÑA
www.latinouhd.com
 

Docoz

New member
Miembro Registrado
Registrado
30 Jun 2020
Mensajes
2
Reaction score
0
Puntos
1
Sexo
Hombre
Eso hermano lo que requería para este encierro. like
 

Docoz

New member
Miembro Registrado
Registrado
30 Jun 2020
Mensajes
2
Reaction score
0
Puntos
1
Sexo
Hombre
Muchísimas gracias @Vizard! Es justo y necesario para este encierro pandémico
 
Arriba