Sr. Ávila (2013) S01 1080p AMZN WEB-DL H.264 Latino

Vizard

Well-known member
Miembro del Staff
Administrador
Uploader


SINOPSIS


Sr. Ávila narra la historia de un hombre de clase media, vendedor de seguros de vida, esposo y padre, que oculta una doble vida como asesino a sueldo dentro de una organización criminal. La vida de Ávila no es, en apariencia, muy distinta a la de cualquier otro ciudadano de una gran ciudad; sin embargo, levantar esta fachada de normalidad no ha sido tarea fácil, y más difícil aún será mantenerla. Ávila escalará posiciones dentro de la organización y se convertirá en el Sr. Del negocio. Con el nuevo cargo vendrán problemas y responsabilidades y la entramada farsa se irá desmoronando; el pasado regresará para cobrar cuentas pendientes y su vida, la de su esposa María y su hijo Emiliano se transformarán en una pesadilla de la cual será difícil escapar.


WEB-DL INFO


Insertar CODE, HTML o PHP:
Fuente: https://www.amazon.com/gp/video/detail/B015EUV6AS
Sr.Ávila.S01.REPACK.1080p.WEB-DL.DD+2.0.H.264-SbR [45.1GB]
Video.....: H.264 / 9-10 Mbps aprox / 1080p / 23.976 fps / 16:9 / High Profile 4.0
Audio...#1: Latino / Dolby Digital Plus / 2.0 / 48 kHz / 224 kbps
Subtítulos: Inglés SDH, Latino, Ruso / Subrip (.srt)

Insertar CODE, HTML o PHP:
General
Unique ID                                : 225117753259054366531719566500029376316 (0xA95C1A29E049EEE00AC3FFDAC5B1A73C)
Complete name                            : Sr.Ávila.S01E01.Surprise.Party.1080p.WEB-DL.DD+2.0.H.264-SbR.mkv
Format                                   : Matroska
Format version                           : Version 4
File size                                : 3.61 GiB
Duration                                 : 52 min 48 s
Overall bit rate mode                    : Variable
Overall bit rate                         : 9 780 kb/s
Encoded date                             : UTC 2019-04-21 18:20:45
Writing application                      : mkvmerge v33.1.0 ('Primrose') 64-bit
Writing library                          : libebml v1.3.7 + libmatroska v1.5.0

Video
ID                                       : 1
Format                                   : AVC
Format/Info                              : Advanced Video Codec
Format profile                           : High@L4
Format settings                          : CABAC / 4 Ref Frames
Format settings, CABAC                   : Yes
Format settings, Reference frames        : 4 frames
Codec ID                                 : V_MPEG4/ISO/AVC
Duration                                 : 52 min 48 s
Bit rate mode                            : Variable
Bit rate                                 : 9 554 kb/s
Maximum bit rate                         : 15.0 Mb/s
Width                                    : 1 920 pixels
Height                                   : 1 080 pixels
Display aspect ratio                     : 16:9
Frame rate mode                          : Constant
Frame rate                               : 29.970 (30000/1001) FPS
Color space                              : YUV
Chroma subsampling                       : 4:2:0
Bit depth                                : 8 bits
Scan type                                : Progressive
Bits/(Pixel*Frame)                       : 0.154
Stream size                              : 3.52 GiB (98%)
Language                                 : Spanish
Default                                  : Yes
Forced                                   : No
Color range                              : Limited
Color primaries                          : BT.709
Transfer characteristics                 : BT.709
Matrix coefficients                      : BT.709

Audio
ID                                       : 2
Format                                   : E-AC-3
Format/Info                              : Enhanced AC-3
Commercial name                          : Dolby Digital Plus
Codec ID                                 : A_EAC3
Duration                                 : 52 min 48 s
Bit rate mode                            : Constant
Bit rate                                 : 224 kb/s
Channel(s)                               : 2 channels
Channel layout                           : L R
Sampling rate                            : 48.0 kHz
Frame rate                               : 31.250 FPS (1536 SPF)
Compression mode                         : Lossy
Stream size                              : 84.6 MiB (2%)
Language                                 : Spanish
Service kind                             : Complete Main
Default                                  : Yes
Forced                                   : No

Text #1
ID                                       : 3
Format                                   : UTF-8
Codec ID                                 : S_TEXT/UTF8
Codec ID/Info                            : UTF-8 Plain Text
Duration                                 : 49 min 46 s
Bit rate                                 : 48 b/s
Count of elements                        : 403
Stream size                              : 17.7 KiB (0%)
Language                                 : Russian
Default                                  : No
Forced                                   : No

Text #2
ID                                       : 4
Format                                   : ASS
Codec ID                                 : S_TEXT/ASS
Codec ID/Info                            : Advanced Sub Station Alpha
Duration                                 : 48 min 50 s
Bit rate                                 : 51 b/s
Count of elements                        : 383
Compression mode                         : Lossless
Stream size                              : 18.3 KiB (0%)
Language                                 : English
Default                                  : No
Forced                                   : No

Text #3
ID                                       : 5
Format                                   : UTF-8
Codec ID                                 : S_TEXT/UTF8
Codec ID/Info                            : UTF-8 Plain Text
Duration                                 : 48 min 50 s
Bit rate                                 : 28 b/s
Count of elements                        : 383
Stream size                              : 10.1 KiB (0%)
Language                                 : English
Default                                  : No
Forced                                   : No

Text #4
ID                                       : 6
Format                                   : UTF-8
Codec ID                                 : S_TEXT/UTF8
Codec ID/Info                            : UTF-8 Plain Text
Duration                                 : 51 min 30 s
Bit rate                                 : 38 b/s
Count of elements                        : 569
Stream size                              : 14.7 KiB (0%)
Title                                    : SDH
Language                                 : Spanish
Default                                  : No
Forced                                   : No

CAPTURAS









DESCARGA


:MEGA: :Usenet:
El contenido de este bloque oculto solo puede ser visto por miembros de (Grupos de Usuarios: Miembro VIP).


ENLACES EXTERNOS




CONTRASEÑA


www.latinouhd.com
 
Última edición:
Arriba