7 Años / 7 Years (2016) 1080p NF WEB-DL Castellano

Vizard

Well-known member
Miembro del Staff
Administrador
Registrado
26 Ene 2019
Mensajes
409
Reaction score
3.811
Puntos
256
Sexo
Hombre


SINOPSIS


Biopic que centra su historia en torno a los años de instituto de Barack Obama en la ciudad de Nueva York. Una época difícil para el que sería más tarde el presidente de los EE.UU, no solo porque tuvo que hacer frente a los problemas habituales del día a día sino también por el sentimiento de rechazo que experimentó por ser negro o la sensación de no encajar en ningún sitio.


INFO
Insertar CODE, HTML o PHP:
General
Unique ID                                : 324081832099706453891611815097941118686 (0xF3CFE3F6F946A6D0DE55139F512C4EDE)
Complete name                            : E:\Vizard\Descargas\Maria\7.Años.2016.1080p.NF.WEB-DL.Latino-LUHD\7.Años.2016.1080p.NF.WEB-DL.Latino-LUHD.mkv
Format                                   : Matroska
Format version                           : Version 4
File size                                : 1.81 GiB
Duration                                 : 1 h 17 min
Overall bit rate mode                    : Variable
Overall bit rate                         : 3 360 kb/s
Movie name                               : 7 Años (2016)
Encoded date                             : UTC 2019-05-09 05:50:31
Writing application                      : mkvmerge v33.1.0 ('Primrose') 64-bit
Writing library                          : libebml v1.3.7 + libmatroska v1.5.0

Video
ID                                       : 1
Format                                   : AVC
Format/Info                              : Advanced Video Codec
Format profile                           : Main@L4
Format settings                          : CABAC / 3 Ref Frames
Format settings, CABAC                   : Yes
Format settings, RefFrames               : 3 frames
Codec ID                                 : V_MPEG4/ISO/AVC
Duration                                 : 1 h 17 min
Bit rate mode                            : Variable
Bit rate                                 : 2 740 kb/s
Maximum bit rate                         : 4 110 kb/s
Width                                    : 1 920 pixels
Height                                   : 1 080 pixels
Display aspect ratio                     : 16:9
Frame rate mode                          : Constant
Frame rate                               : 24.000 FPS
Color space                              : YUV
Chroma subsampling                       : 4:2:0
Bit depth                                : 8 bits
Scan type                                : Progressive
Bits/(Pixel*Frame)                       : 0.055
Stream size                              : 1.47 GiB (81%)
Writing library                          : x264 core 118
Encoding settings                        : cabac=1 / ref=3 / deblock=1:0:0 / analyse=0x1:0x111 / me=umh / subme=10 / psy=1 / psy_rd=1.00:0.00 / mixed_ref=1 / me_range=24 / chroma_me=1 / trellis=2 / 8x8dct=0 / cqm=0 / deadzone=21,11 / fast_pskip=1 / chroma_qp_offset=-2 / threads=6 / sliced_threads=0 / nr=0 / decimate=1 / interlaced=0 / bluray_compat=0 / constrained_intra=0 / bframes=2 / b_pyramid=0 / b_adapt=2 / b_bias=0 / direct=3 / weightb=1 / open_gop=0 / weightp=2 / keyint=48 / keyint_min=25 / scenecut=0 / intra_refresh=0 / rc_lookahead=0 / rc=2pass / mbtree=1 / bitrate=2740 / ratetol=1.0 / qcomp=0.50 / qpmin=6 / qpmax=51 / qpstep=4 / cplxblur=20.0 / qblur=0.5 / vbv_maxrate=4110 / vbv_bufsize=5480 / nal_hrd=vbr / ip_ratio=1.40 / aq=1:1.00
Language                                 : Spanish
Default                                  : Yes
Forced                                   : No

Audio
ID                                       : 2
Format                                   : E-AC-3
Format/Info                              : Enhanced AC-3
Commercial name                          : Dolby Digital Plus
Codec ID                                 : A_EAC3
Duration                                 : 1 h 17 min
Bit rate mode                            : Constant
Bit rate                                 : 640 kb/s
Channel(s)                               : 6 channels
Channel layout                           : L R C LFE Ls Rs
Sampling rate                            : 48.0 kHz
Frame rate                               : 31.250 FPS (1536 SPF)
Compression mode                         : Lossy
Stream size                              : 354 MiB (19%)
Title                                    : Castellano
Language                                 : Spanish
Service kind                             : Complete Main
Default                                  : Yes
Forced                                   : No

Text #1
ID                                       : 3
Format                                   : UTF-8
Codec ID                                 : S_TEXT/UTF8
Codec ID/Info                            : UTF-8 Plain Text
Duration                                 : 1 h 13 min
Bit rate                                 : 74 b/s
Count of elements                        : 1263
Stream size                              : 39.7 KiB (0%)
Language                                 : English
Default                                  : No
Forced                                   : No

Text #2
ID                                       : 4
Format                                   : UTF-8
Codec ID                                 : S_TEXT/UTF8
Codec ID/Info                            : UTF-8 Plain Text
Duration                                 : 1 h 13 min
Bit rate                                 : 86 b/s
Count of elements                        : 1409
Stream size                              : 46.1 KiB (0%)
Title                                    : Castellano
Language                                 : Spanish
Default                                  : No
Forced                                   : No

Text #3
ID                                       : 5
Format                                   : UTF-8
Codec ID                                 : S_TEXT/UTF8
Codec ID/Info                            : UTF-8 Plain Text
Duration                                 : 1 h 16 min
Bit rate                                 : 0 b/s
Count of elements                        : 10
Stream size                              : 242 Bytes (0%)
Title                                    : Castellano Forzados
Language                                 : Spanish
Default                                  : Yes
Forced                                   : No

NOTAS
Extraído de Netflix.

CAPTURAS





DESCARGA
El contenido de este bloque oculto solo puede ser visto por miembros de (Grupos de Usuarios: Miembro VIP).

Para ver este contenido oculto, debes reaccionar con : Like Like, Love Love

ENLACES EXTERNOS


CONTRASEÑA
www.latinouhd.com


Descarga 7 Años (2016) 1080p NF WEB-DL Latino por Mega.nz y Google Drive gratis


 

Labeg

New member
Miembro Registrado
Registrado
25 May 2020
Mensajes
1
Reaction score
0
Puntos
1
Sexo
Hombre
Excelente pelicula 🙂
 
Arriba